Download Lagu Keith Urban & Carrie Underwood - Blue Ain\'t Your Color & The Fighter - 2017 ACM Awards

VSFaustintx 2020-05-13T01:25:44Z

Berikut link download lagu Keith Urban & Carrie Underwood - Blue Ain\'t Your Color & The Fighter - 2017 ACM Awards.Mp3 gratis, mudah dan cepat di Situslagu.


Deskripsi

Judul : Keith Urban & Carrie Underwood - Blue Ain\'t Your Color & The Fighter - 2017 ACM Awards
Diupload oleh : VSFaustintx
Durasi : PT6M40S
Dilihat : 134877 x
Disukai : 2127
Format : MP3
Sumber : youtube.com/watch?v=-NH7ocbAUoc

Download MP3 320Kbps


Download Lagu Mp3 Terbaru Keith Urban & Carrie Underwood - Blue Ain't Your Color & The Fighter - 2017 ACM Awards di SITUSLAGU secara gratis, dan juga dapat anda DOWNLOAD lewat HP / Laptop / Komputer tanpa ribet. Jangan lupa beli juga kaset asli atau CD original album VSFaustintx Keith Urban & Carrie Underwood - Blue Ain't Your Color & The Fighter - 2017 ACM Awards untuk mendukung karya mereka.


Tags: Download Lagu Keith Urban & Carrie Underwood - Blue Ain't Your Color & The Fighter - 2017 ACM Awards Situslagu, lagu, mrlagu, vidmate, planetminang, StafaBand, ilkpop, bursamp3, wapkalagu, sharelagu, lagu123, savelagu, uyeshare, wapku.net, wapka.mobi, laguaz, savefrom, matikiri, convert yt, Spotify, vimeo, waptrick, mp3ssx, itunes, meTube, youtube, tubidy dan mp3juices.

Keith Urban & Carrie Underwood - Blue Ain\'t Your Color & The Fighter -  2017 ACM Awards - SITUSLAGU

SITUSLAGU: Keith Urban & Carrie Underwood - Blue Ain't Your Color & The Fighter - 2017 ACM Awards. All Rights to this belong to CBS and ACM. Format : MPEG-4 Format profile : Base Media Codec ID : isom (isom/iso2/avc1/mp41) File size : 341 MiB Duration : 6 min 39 s Overall bit rate : 7,163 kb/s ID : 1 Format : AVC Format/Info : Advanced Codec Format profile : Main@L4 Format settings : CABAC / 1 Ref Frames Format settings, CABAC : Yes Format settings, Reference : 1 frame Codec ID : avc1 Codec ID/Info : Advanced Coding Duration : 6 min 39 s Bit rate : 6,906 kb/s Width : 1,920 pixels Height : 1,080 pixels Display aspect ratio : 16:9 Frame rate mode : Variable Frame rate : 30.000 FPS Minimum frame rate : 29.425 FPS Maximum frame rate : 30.296 FPS Color space : YUV Chroma subsampling : 4:2:0 Bit depth : 8 bits Scan type : Progressive Stream size : 329 MiB (96%) Codec configuration box : avcC ID : 2 Format : AAC LC Format/Info : Advanced Codec Low Complexity Codec ID : mp4a-40-2 Duration : 6 min 39 s Bit rate mode : Constant Bit rate : 254 kb/s Channel(s) : 6 channels Channel layout : C L R Ls Rs LFE Sampling rate : 48.0 kHz Frame rate : 46.875 FPS (1024 SPF) Compression mode : Lossy Stream size : 12.1 MiB (4%) Default : Yes Alternate group : 1
  1. Home
  2. Download
  3. Keith Urban & Carrie Underwood - Blue Ain't Your Color & The Fighter - 2017 ACM Awards